#TITLE:Heartbreak Armageddon;
#SUBTITLE:;
#ARTIST:Dragonforce;
#TITLETRANSLIT:;
#SUBTITLETRANSLIT:;
#ARTISTTRANSLIT:;
#CREDIT:;
#BANNER:Heartbreak Armageddon.jpg;
#BACKGROUND:Heartbreak Armageddon-bg.jpg;
#LYRICSPATH:;
#CDTITLE:marth.png;
#MUSIC:Heartbreak Armageddon.mp3;
#OFFSET:-0.120;
#SAMPLESTART:115.580;
#SAMPLELENGTH:19.500;
#SELECTABLE:YES;
#DISPLAYBPM:195.000;
#BPMS:0.000=195.000,744.000=150.000,954.500=195.000;
#STOPS:;
#BGCHANGES:;
// cache tags:
#FIRSTBEAT:0.000;
#LASTBEAT:1425.500;
#SONGFILENAME:Songs/Music V.I.P ^_^/Heartbreak Armageddon/Heartbreak Armageddon.sm;
#HASMUSIC:1;
#HASBANNER:1;
#MUSICLENGTH:462.607;
// end cache tags

//---------------dance-double - ----------------
#NOTES:
     dance-double:
     :
     Easy:
     3:
     0.044,0.048,0.006,0.017,0.000,131.000,3.000,8.000,0.000,0.000:
00000000
00000000
00000000
00000000
,
00000000
00000000
00000000
00000000
,
00000000
00000000
00000000
00000000
,
00000000
00000000
00000000
00000000
,
00100000
00000000
10000000
00000000
,
00100000
00000000
00010000
00001000
,
00000010
00000000
00000001
00000000
,
00000010
00000000
00001000
00010000
,
00002000
00000000
00000000
00003000
,
00020000
00030000
00001000
00001000
,
00010000
00000000
00100000
00000000
,
01000000
00000000
00100000
00000000
,
10000000
00000000
01000000
00000000
,
00010000
00000000
00001000
00000000
,
00000100
00000000
00000010
00000000
,
00000100
00000000
00000001
00000000
,
00000010
00000000
00001000
00000000
,
00010000
00000000
00011000
00000000
,
00010000
01000000
00010000
00000000
,
00001000
00000000
00001000
00000000
,
00001000
00000100
00001000
00000000
,
00010000
00000000
00010000
00000000
,
00001000
00000000
00000010
00000000
,
00000001
00000000
00000010
00000000
,
00001000
00001000
00000000
00010000
,
00010000
00000000
00011000
00000000
,
00010000
00100000
00010000
00100000
,
10000000
00000000
01000000
00010000
,
00001000
00000010
00001000
00000010
,
00000001
00000000
00000100
00001000
,
00010000
00000000
01000000
00000000
,
10000000
00000000
01000000
00000000
,
00010000
00000000
00001000
00000000
,
00000100
00000000
00001000
00000000
,
00020000
00000000
00001000
00030000
,
00020000
00000000
00000100
00030000
,
00020000
00000000
00000010
00030000
,
00020000
00000000
00001000
00031000
,
00010000
00100000
00000000
00100000
,
10000000
01000000
00000000
00100000
,
00010000
00001000
00000000
00000100
,
00000001
00000000
00000100
00000010
,
00001000
00000010
00000000
00000010
,
00000001
00000100
00000000
00000010
,
00001000
00010000
00000000
01000000
,
10000000
00000000
01000000
00100000
,
00010000
01000000
00000000
01000000
,
10000000
00100000
00000000
01000000
,
00010000
00001000
00000000
00000010
,
00000001
00000000
00000010
00000100
,
00001000
00000100
00000000
00000100
,
00000001
00000010
00000000
00000100
,
00001000
00010000
00000000
00100000
,
10000000
00000000
00100000
01000000
,
00001000
00000000
00010000
00000000
,
00022000
00000000
00000000
00033000
;

//---------------dance-double - ----------------
#NOTES:
     dance-double:
     :
     Medium:
     5:
     0.076,0.078,0.045,0.022,0.000,215.000,21.000,10.000,0.000,0.000:
00000000
00000000
00000000
00000000
,
00000000
00000000
00000000
00000000
,
00000000
00000000
00000000
00000000
,
00000000
00000000
00000000
00000000
,
00100000
00000000
10000000
00000000
01000000
00010000
00001000
00000000
,
00010000
00000000
00100000
00000000
10000000
00100000
00010000
00000000
,
00001000
00000000
00000010
00000000
00001000
00010000
00001000
00000000
,
00001000
00000010
00000001
00001001
,
00000200
00000000
00000000
00000300
,
00020000
00030000
00002000
00003000
,
00010000
00000000
00100000
00000000
10000000
00100000
10000000
00000000
,
00100000
00010000
00001000
00010000
,
00001000
00000000
00000010
00000000
00000001
00000010
00000001
00000000
,
00000010
00001000
00010000
00001000
,
00010000
01000000
10000000
00100000
,
00010000
00000000
00001000
00000000
00000100
00000010
00001000
00000000
,
00000100
00000001
00000010
00001000
,
00010000
00000000
00100000
00000000
00010000
00001000
00010000
00000000
,
00001000
00000010
00001000
00000000
00000010
00000000
00000001
00000000
,
00000010
00001000
00000010
00000000
00001000
00000000
00010000
00000000
,
00010000
01000000
00010000
00000000
01000000
00000000
10000000
00000000
,
01000000
00010000
01000000
00000000
00010000
00000000
00001000
00000000
,
00001000
00000010
00001000
00000000
00010000
00000000
01000000
00000000
,
00010000
00001000
00000010
00000001
,
00000100
00000101
00000010
00010010
,
00001000
00000000
00011000
00010000
,
00001000
00000010
00001000
00010000
,
01000000
00000000
00010000
00000000
00001000
00000010
00001000
00000000
,
00000010
00000011
00000001
00000100
,
00001000
00011000
00010000
00011000
,
00010000
01000000
00010000
00001000
,
00000010
00000000
00001000
00000000
00010000
01000000
00010000
00000000
,
01000000
11000000
10000000
00100000
,
00010000
00011000
00001000
00011000
,
00002000
00000000
00000010
00003010
,
00000020
00000000
00000001
00000031
,
00000002
00000103
00000200
00001300
,
00002000
00013000
00001000
00011000
,
00010000
00100000
00010000
00000000
00100000
00000000
10000000
00000000
,
01000000
10000000
00100000
00010000
,
00001000
00000010
00001000
00000000
00000010
00000000
00000001
00000000
,
00000100
00000001
00000010
00001000
,
00010000
00110000
00100000
10100000
,
10000000
11000000
01000000
01010000
,
00010000
00001000
00000100
00000001
,
00000100
00001000
00010000
00011000
,
00001000
00000100
00001000
00000000
00000100
00000000
00000001
00000000
,
00000010
00000001
00000100
00001000
,
00010000
01000000
00010000
00000000
01000000
00000000
10000000
00000000
,
00100000
10000000
01000000
00010000
,
00001000
00001100
00000100
00000101
,
00000001
00000011
00000010
00001010
,
00001000
00010000
00100000
10000000
,
00100000
00010000
00001000
00000100
,
00000001
00000100
00001000
00010000
,
00022000
00000000
00000000
00033000
;

//---------------dance-double - ----------------
#NOTES:
     dance-double:
     :
     Hard:
     8:
     0.091,0.083,0.017,0.009,0.019,283.000,8.000,4.000,0.000,0.000:
00000000
00000000
00000000
00000000
,
00000000
00000000
00000000
00000000
,
00000000
00000000
00000000
00000000
,
00000000
00000000
00000000
00000000
,
00100000
10000000
01000000
10000000
00000000
00010000
00100000
00000000
,
10000000
01000000
00010000
00000000
00001000
00000000
00000100
00000000
,
00000001
00000010
00000001
00000100
00000000
00000010
00001000
00000000
,
00000001
00000000
00000100
00000000
00000000
00001000
00000000
00000000
00010000
00000000
00001000
00000000
00000100
00000000
00001000
00000000
,
00020000
00000000
00000000
00000000
,
02030000
00000000
23000000
30000000
,
01000000
00000000
10000000
00000000
01000000
00000000
00000000
00000000
00100000
00000000
00000000
00010000
00000000
00000000
01000000
00000000
,
00100000
00000000
10000000
00000000
01000000
00000000
00000000
00000000
00010000
00000000
00000000
00001000
00000000
00000000
00000010
00000000
,
00000100
00000000
00000010
00000001
00000100
00000000
00000001
00000100
,
00001000
00000000
00000010
00001000
00000010
00000100
00001000
00000000
,
00010000
00000000
01000000
00000000
00010000
10000000
01000000
00000000
,
10000000
00000000
00010000
00100000
00010000
01000000
00010000
00000000
,
10000000
00000000
00010000
00000000
00001000
00010000
00001000
00000010
,
00000100
00000000
00000000
00000001
00000000
00000000
00000100
00000000
00000001
00000000
00000000
00001000
00000000
00000000
00000001
00000000
,
00000100
00000000
00000001
00000100
00001000
00000000
00010000
01000000
,
00100000
00000000
00010000
10000000
00010000
00000000
10000000
00100000
,
01000000
00000000
00010000
00100000
00000000
01000000
10000000
00000000
,
00100000
10000000
01000000
00000000
00100000
00010000
00100000
00001000
,
00010000
00000000
00000010
00001000
00000010
00000000
00000100
00000001
,
00000100
00000000
00000010
00000100
00000001
00000000
00000100
00000000
,
00001000
00000000
00000000
00010000
00000000
00000000
00100000
00000000
10000000
00000000
00000000
00010000
00000000
00000000
01000000
00000000
,
20000000
00000000
00000000
00000000
31000000
00000000
01000000
00010000
,
10000000
01000000
10000000
01000000
00000000
10000000
00000000
00010000
,
00000000
10000000
01000000
00000000
00010000
00000000
00011000
00000000
,
00000100
00001000
00000100
00001000
00000000
00000001
00000000
00001000
,
00000000
00000001
00000100
00000000
00001000
00000000
00011000
00000000
,
00100000
00010000
10000000
01000000
00000000
10000000
00000000
11000000
,
00000000
10000000
00010000
00000000
10000000
00000000
10100000
00000000
,
10000000
01000000
00010000
01000000
00000000
00010000
00001000
00000010
,
00000000
00000001
00001000
00000000
00000100
00000000
00001100
00000000
,
00000010
00000000
00000000
00000001
00000000
00000000
00000100
00000000
00000000
00000000
00001000
00000000
00000000
00010000
00000000
00000000
,
00100000
00000000
00000000
10000000
00000000
00000000
01000000
00000000
00000000
00000000
00010000
00000000
00000000
00001000
00000000
00000000
,
00000010
00000000
00000000
00000001
00000000
00000000
00000100
00000000
00000010
00000000
00000000
00001000
00000000
00000000
00000100
00000000
,
00000001
00000000
00000000
00000100
00000000
00000000
00001000
00000000
00000000
00000000
00000010
00000000
00000000
00010010
00000000
00000000
,
00001000
00010000
00001000
00010000
00000000
01000000
00000000
10000000
,
00000000
00010000
00100000
00000000
01000000
00000000
01100000
00000000
,
00010000
00001000
00010000
00001000
00000000
00000100
00000000
00000001
,
00000000
00001000
00000010
00000000
00001000
00000000
00001100
00000000
,
00010000
00000100
00010000
00000010
00010000
00001000
00000000
01000000
,
00000000
00100000
10000000
00100000
01000000
00000000
00010000
10000000
,
00010000
10000000
00000000
00010000
10000000
01000000
00000000
00010000
,
00001000
00000000
00010000
00000000
00000000
01000000
00000000
00000000
00010000
00000000
00000000
00001000
00000000
00000000
00000100
00000000
,
00000001
00000100
00000001
00000100
00000000
00000010
00000100
00000010
,
00000000
00000100
00000001
00000100
00001000
00000000
00010000
01000000
,
10000000
00000000
00010000
00100000
00010000
10000000
01000000
10000000
,
00000000
01000000
10000000
01000000
00010000
00000000
00001000
00000100
,
00000010
00000000
00000100
00000000
00000010
00000000
00000000
00001000
00000000
00000000
00000001
00000000
00000100
00000000
00001000
00000000
,
00000000
00010000
00100000
01000000
00010000
00000000
10000000
00100000
,
10000000
01000000
00100000
00010000
00000000
10000000
01000000
10000000
,
00000000
10000000
00010000
00000000
10000000
01000000
00010000
00001000
,
00010000
00001000
00000000
00000100
00000000
00000001
00000000
00001000
;

//---------------dance-double - ----------------
#NOTES:
     dance-double:
     :
     Challenge:
     1:
     0.001,0.012,0.000,0.002,0.000,1.000,0.000,1.000,0.000,0.000:
00000000
00000000
00000000
00000000
,
00000000
00000000
00000000
00000000
,
00000000
00000000
00000000
00000000
,
00000000
00000000
00000000
00000000
,
00000000
00000000
00000000
00000000
,
00000000
00000000
00000000
00000000
,
00000000
00000000
00000000
00000000
,
00000000
00000000
00000000
00000000
,
00000000
00000000
00000000
00000000
,
00000000
00000000
00000000
00000000
,
00000000
00000000
00000000
00000000
,
00000000
00000000
00000000
00000000
,
00000000
00000000
00000000
00000000
,
00000000
00000000
00000000
00000000
,
00000000
00000000
00000000
00000000
,
00000000
00000000
00000000
00000000
,
00000000
00000000
00000000
00000000
,
00000000
00000000
00000000
00000000
,
00000000
00000000
00000000
00000000
,
00000000
00000000
00000000
00000000
,
00000000
00000000
00000000
00000000
,
00000000
00000000
00000000
00000000
,
00000000
00000000
00000000
00000000
,
00000000
00000000
00000000
00000000
,
00000000
00000000
00000000
00000000
,
00000000
00000000
00000000
00000000
,
00000000
00000000
00000000
00000000
,
00000000
00000000
00000000
00000000
,
00000000
00000000
00000000
00000000
,
00000000
00000000
00000000
00000000
,
00000000
00000000
00000000
00000000
,
00000000
00000000
00000000
00000000
,
00000000
00000000
00000000
00000000
,
00000000
00000000
00000000
00000000
,
00000000
00000000
00000000
00000000
,
00000000
00000000
00000000
00000000
,
00000000
00000000
00000000
00000000
,
00000000
00000000
00000000
00000000
,
00000000
00000000
00000000
00000000
,
00000000
00000000
00000000
00000000
,
00000000
00000000
00000000
00000000
,
00000000
00000000
00000000
00000000
,
00000000
00000000
00000000
00000000
,
00000000
00000000
00000000
00000000
,
00000000
00000000
00000000
00000000
,
00000000
00000000
00000000
00000000
,
00000000
00000000
00000000
00000000
,
00000000
00000000
00000000
00000000
,
00000000
00000000
00000000
00000000
,
00000000
00000000
00000000
00000000
,
00000000
00000000
00000000
00000000
,
00000000
00000000
00000000
00000000
,
00000000
00000000
00000000
00000000
,
00000000
00000000
00000000
00000000
,
00000000
00000000
00000000
00000000
,
00000200
00000000
00000000
00000000
,
00000300
00000000
00000000
00000000
;

//---------------dance-single - ----------------
#NOTES:
     dance-single:
     :
     Challenge:
     14:
     1.000,1.000,0.789,0.739,1.000,3708.000,365.000,342.000,0.000,22.000:
0001
0010
0100
1000
0100
1000
0001
0010
0100
1000
0100
1000
0001
0010
0100
1000
,
0002
0000
0000
0000
0000
0000
0000
0003
,
1000
0001
1000
0001
1000
0002
0013
0100
,
0010
0100
0010
0100
0010
0002
1003
0010
,
1000
0010
1000
0010
1000
0002
0103
0001
,
0100
0001
0100
0001
0100
0002
0013
0001
,
0010
0001
0010
0001
0010
0002
0103
0001
,
0100
0001
0100
0001
0100
0002
1003
0100
,
1000
0100
1000
0100
0001
0010
0100
1000
,
0001
0010
0100
1000
0001
0010
0100
1000
,
0200
0001
0010
0001
1000
0001
0010
1000
,
0010
1000
0001
0010
0001
1000
2300
3200
,
0320
1000
0001
0230
0001
1000
2300
0010
,
3200
0010
0001
2300
0100
0001
3020
0001
,
2030
0100
0010
0001
3020
0100
0032
1000
,
0100
0000
0013
0100
2000
0000
0001
0000
3200
0000
0010
0000
0302
0000
1000
0000
,
1003
0100
0010
0001
0010
0100
2000
0000
0000
3200
0000
0000
2300
0000
0000
3020
0000
0000
2030
0000
0000
3002
0000
0000
,
2003
0000
0000
3020
0000
0000
1030
0100
1000
0020
0000
0000
0032
0000
0000
0023
0000
0000
0230
0000
0000
0320
0000
0000
,
0230
0000
0000
0000
0000
0000
0000
0000
0000
0320
0000
0000
0031
0010
0100
1000
0100
0010
0001
0010
0100
1000
0100
0010
,
0002
0010
0100
1000
0010
0103
2000
3200
,
0320
2030
3200
0320
0032
0023
0230
0320
,
0032
0023
0230
2300
3020
2030
3020
0230
,
0302
1000
1000
1000
0100
0010
0010
0010
,
0010
0010
0010
0010
0100
1000
1000
1003
,
1000
0100
1000
0100
1000
0100
1000
0100
1000
0001
0010
0001
0010
0001
0010
0001
0010
0100
1000
0100
0010
0001
0010
0100
,
1000
0100
0010
0001
0010
0100
1000
0001
0010
0100
1000
0001
0010
0100
1000
0001
0010
0100
1000
0001
0010
0100
1000
0010
,
0200
0000
0300
1000
2000
0000
3200
0000
,
0320
0030
0100
0020
0000
0000
0000
0130
,
0002
0000
0023
0230
,
2300
0000
3100
0002
0000
0000
0000
0003
,
1200
0000
0300
0100
0200
0000
0320
0000
,
1030
0100
0010
0100
1000
0100
0010
0100
1000
0200
0000
0000
0000
0000
0000
0320
0000
0000
0000
0000
0000
0000
0000
0000
,
0031
0010
0100
0010
0001
0010
0100
0010
0001
0020
0000
0000
0000
0000
0000
0000
0000
0000
0000
0000
0000
0000
0000
0000
,
1030
0100
0010
0001
1000
0100
0010
0001
1000
0100
0010
0001
1000
0100
0010
0001
1000
0100
0010
0001
1000
0100
0010
0001
,
1020
1000
0000
0230
,
0302
0023
0230
2300
0000
0000
0001
0000
,
3020
0000
1000
0032
0000
0000
1203
0000
,
0301
0010
0100
1000
0001
0010
0100
1000
0001
0010
0100
1000
0002
0000
0000
0000
0000
0000
1000
0000
0000
0003
0000
0000
,
0001
0010
0100
0001
0010
0100
0001
0010
0100
0001
0010
1000
0001
0010
1000
0001
0010
1000
0001
0100
1000
0001
0100
1000
,
0001
0100
1000
0010
0100
1000
0010
0100
1000
0010
0100
1000
0100
0010
0001
0010
0100
1000
0200
0000
0000
0000
0300
0000
,
2000
0000
0000
0000
0000
3000
0101
0201
,
0000
0000
0000
0000
0000
0300
0110
0120
,
0000
0000
0000
0000
0000
0000
0000
0030
,
2002
0000
0000
3003
2020
0000
0000
3030
,
0202
0303
0011
0011
0011
0011
0011
0011
,
1000
0010
1000
0010
1000
0010
1000
0010
1000
0010
1000
0010
1000
0010
1000
0010
,
1001
0000
0000
0000
,
0000
0000
0000
0000
,
1001
0000
0000
0000
,
1000
0100
0010
0001
0010
0001
0010
0001
1000
0100
0010
0001
0010
0001
0010
0001
,
0110
0000
0000
0000
,
0000
0000
0000
0000
,
1001
0000
0000
0000
,
0010
0100
0010
0100
0010
0100
1000
0100
0010
0100
0010
0100
0010
0100
0010
0100
,
1001
0010
1000
0100
0001
0010
1000
0100
0001
0010
1000
0100
0001
0010
0100
1000
,
0100
0010
1100
0000
0000
0000
0101
0000
0101
0000
0000
0000
1010
0000
1010
0000
,
0100
1000
0010
0001
0100
1000
0010
0001
0100
1000
0010
0001
0100
1000
0010
0001
,
0010
1000
0110
0000
0000
0000
1100
0000
1010
0000
0110
0000
0022
0000
0000
0033
,
1000
0010
1000
0010
1000
0010
1000
0010
1000
0010
1000
0010
1000
0010
1000
0010
,
1000
0010
1100
0000
0000
0000
0011
0000
1100
0000
0000
0000
1100
0000
0011
0000
,
1000
0000
1000
0000
0001
0100
0001
0000
0010
0000
0010
0000
1000
0100
1000
0000
,
0001
0010
0100
1000
0100
0010
0001
0010
0100
1000
0001
1000
0001
1000
0001
1000
,
0001
0010
0100
1000
0001
1000
0100
0010
0001
1000
0001
0010
0100
1000
0001
1000
,
0100
0010
0001
1000
0001
0010
0100
1000
0001
1000
0100
0010
0001
0010
0100
1000
,
0100
1000
0001
1000
0100
1000
0001
1000
0100
1000
0001
1000
0100
1000
0001
1000
,
0100
1000
0001
1000
0100
1000
0001
1000
0100
1000
0001
1000
0100
1000
0001
1000
,
0001
0010
0100
0010
0001
1000
0100
0010
0100
1000
0001
0010
0100
0010
0001
1000
,
0100
0010
0100
1000
0001
0010
0100
0010
0001
1000
0100
0010
0100
1000
0001
0010
,
0001
0010
0001
0010
0001
0010
0100
0010
0100
0010
0100
1000
0100
1000
0100
1000
,
0101
1100
0000
1100
1001
0100
1001
0100
,
0011
0000
0000
0000
0011
0000
0000
0000
0011
0000
0000
0000
0011
0000
0100
1000
,
0011
0000
0000
0000
0011
0000
0000
0000
0011
0000
0000
0000
0011
0000
0100
0001
,
1010
0000
0000
0000
1010
0000
0000
0000
1010
0000
0000
0000
1010
0000
0001
0100
,
1010
0000
0000
0000
1010
0000
0000
0000
1010
0000
0000
0000
1010
0000
0001
1000
,
0101
0000
0000
0000
1001
0000
0000
0000
1001
0000
0000
0000
1001
0000
0010
0100
,
1001
0000
0000
0000
1001
0000
0000
0000
1001
0000
0100
0010
1001
0000
0000
0000
,
1001
0010
0100
1000
0100
0010
1001
0010
0100
1000
0100
0010
1001
0010
0100
1000
,
0110
0001
1000
0001
1000
0001
1000
0001
1000
0001
1000
0001
1000
0001
1000
0001
,
0210
0000
0010
0000
0001
1000
0001
0000
1000
0000
1000
0000
0001
1000
0010
0000
,
0001
0000
0001
0000
1000
0001
1000
0000
0010
0000
0010
0000
0001
1000
0001
0000
,
1320
0000
1000
0000
0001
0100
1000
0000
0100
0000
0100
0000
0001
1000
0100
0000
,
1032
0000
1000
0000
1000
0100
1000
0000
0123
0000
1000
0000
1000
0001
0100
0000
,
2130
0000
0100
0000
0001
0010
0100
0000
0001
0000
0001
0000
0010
0100
0010
0000
,
0010
0000
0010
0000
0001
0100
0001
0000
0100
0000
0100
0000
0001
0010
0100
0000
,
3012
0000
0000
0000
1000
0100
0010
0100
1000
0000
1000
0000
1000
0000
1000
0000
,
2013
0000
0010
0000
0010
0000
0010
0000
0010
0100
0010
0100
0010
0100
0010
0100
,
3011
0000
0101
0001
1001
0001
0101
0000
,
1010
0000
1010
1000
1100
1000
1001
0000
,
0011
0000
1100
0100
0110
0100
0101
0000
,
1001
0000
0110
0010
1010
0010
0011
0010
,
1010
0000
1100
0000
1100
0000
1100
0001
,
1010
1010
1010
1010
,
1010
0000
0110
0110
0110
0110
0110
0110
,
0101
0000
0101
0000
0101
0000
0101
0000
0001
0010
0100
1000
0100
0010
0001
0010
,
1100
0000
0001
0000
0001
0100
0010
0000
0001
0000
0001
0000
1000
0100
1000
0000
,
0011
0000
1000
0000
1000
0001
0100
0000
0010
0000
0010
0000
0001
0010
0001
0000
,
0110
0000
1000
0000
1000
0010
0100
0000
0001
0000
0001
0000
0100
0010
0100
0000
,
1001
0000
0100
0000
0010
1000
0010
0000
0101
0000
1000
0000
0010
0001
0100
0000
,
1010
0000
0100
0000
0001
0100
1000
0000
0010
0000
0010
0000
1000
0001
0010
0000
,
0101
0000
1000
0000
0001
0100
0001
0000
0010
0000
0010
0000
0001
1000
0100
0000
,
1010
0100
0010
0100
0010
0100
0010
0100
0010
0100
0010
0100
0010
0100
0010
0100
,
0011
0100
1000
0100
0010
0001
0010
0100
1001
0100
0010
0100
1001
0100
0010
0100
,
1001
0000
0010
0000
0001
1000
0001
0000
0100
0000
0100
0000
0010
0001
0010
0000
,
1100
0000
0010
0000
0100
1000
0100
0000
0001
0000
0001
0000
0010
0100
0010
0000
,
0101
0000
1000
0000
0001
0100
0010
0000
0001
0000
0001
0000
1000
0001
0010
0000
,
0101
0000
1000
0000
0010
0100
0001
0000
0110
0000
1000
0100
1000
0100
1000
0100
,
1001
0000
0010
0000
1000
0001
1000
0000
0010
0000
0010
0000
0100
1000
0100
0000
,
0011
0000
1000
0000
0001
0010
0001
0000
0010
0000
0010
0000
0100
1000
0010
0000
,
1001
0010
0100
1000
0100
0010
0001
0010
0100
1000
0100
0010
0001
0010
0100
0010
,
0001
0100
0001
0100
0001
0100
0001
0100
0001
0100
0001
0100
0001
0100
0001
0100
,
0001
1000
0100
1000
0100
1000
0001
1000
0100
1000
0100
1000
0001
0010
0100
1000
,
0100
0001
0010
0001
0010
0001
1000
0001
0010
0001
0010
0001
1000
0100
0010
0001
,
0020
0000
0032
0023
0230
2300
3200
0320
,
0032
0000
0023
0000
0230
0000
0320
0000
0032
0000
0000
0000
0000
0000
0000
0003
,
0100
0001
0100
0010
0100
0001
0100
0010
0100
0001
0100
0010
0100
0001
0100
1000
,
0010
0100
0010
1000
0010
0100
0010
1000
0010
0100
0010
1000
0010
0100
0010
1000
,
0020
0032
2003
3020
0230
0302
0203
0320
,
2030
3002
0013
0002
0023
0000
0000
0030
,
1000
0010
1000
0010
1000
0010
1000
0010
1000
0010
1000
0010
1000
0100
0010
0001
0010
0100
1000
0010
1000
0010
1000
0010
,
1000
0100
0010
0001
0010
0100
1000
0100
0010
0001
0010
0100
1000
0100
0010
0001
0010
0100
0020
0000
0000
0000
0030
0000
,
1000
0000
0000
0001
0000
0000
1000
0000
0000
0010
0000
0000
0100
0000
0000
0001
0000
0000
0010
0000
0000
1000
0000
0001
,
0010
0000
0001
0010
0000
0000
0100
1000
0000
0000
0000
1000
0002
0000
0000
0000
0000
0000
0000
0000
0000
0003
0000
0000
,
0001
0010
0100
0001
0010
0100
0001
0010
0100
0001
0010
0100
0001
0010
0100
0001
0010
0100
0001
0010
0100
0001
0010
0100
,
0010
0100
1000
0010
0100
1000
0010
0100
1000
0010
0100
1000
0010
0100
1000
0010
0100
1000
0010
0100
1000
0010
0100
1000
,
0001
0010
0001
0010
0001
0010
0001
0010
0001
0100
0010
0100
1000
0010
1000
0010
1000
0100
1000
0100
1000
0100
1000
0100
,
0010
0100
0010
0100
0010
0100
0010
0100
0010
0001
1000
0001
1000
0001
1000
0001
1000
0001
0100
0001
0100
0001
0100
0001
,
1000
0000
2000
0000
3000
0000
0100
0000
2000
0000
0020
0000
3030
0000
1000
1000
,
0100
0010
0001
0000
0200
0000
0320
0000
,
0130
0000
0200
0000
0300
0000
0010
1000
0010
0000
0020
0000
0030
0000
1000
0000
,
0101
1000
0100
1000
0110
0001
1000
0001
1100
0001
0010
0100
0011
1000
0010
0100
,
1000
0001
1000
0010
1000
0001
1000
0010
1000
0001
1000
0010
1000
0001
1000
0010
,
1000
0001
1100
0000
0000
0000
0011
0000
0110
0000
0000
0000
1100
0000
0101
0000
,
1000
0001
1000
0001
1000
0001
1000
0001
1000
0001
1000
0001
1000
0001
1000
0001
,
1000
0100
0011
0000
0000
0000
1010
0000
0101
0000
0101
0000
0022
0000
0033
0000
,
0001
1000
0001
0100
0001
1000
0001
0100
0001
1000
0001
0100
0001
1000
0001
0100
,
0001
1000
0011
0000
0000
0000
1010
0000
1100
0000
0000
0000
0110
0000
0011
0000
,
0010
0100
0010
0100
0010
0100
0010
0000
0010
1000
0010
1000
0010
1000
0010
1000
,
0010
0100
1000
0100
0010
0001
0010
0100
1000
0100
0010
0001
0010
0100
1000
0100
,
0010
1000
0001
1000
0001
0100
0010
1000
0010
0100
0001
0100
0001
0100
0010
1000
,
0010
1000
0001
0100
0010
0100
0001
0100
0001
1000
0001
0100
0010
1000
0010
1000
,
0001
0010
1000
0010
0001
0010
1000
0010
0001
0010
1000
0100
0010
0001
1000
0100
,
1000
0100
1000
0100
1000
0100
1000
0100
1000
0100
1000
0100
1000
0100
1000
0100
,
0010
0001
0010
0100
1000
0001
0100
1000
0100
0010
0001
1000
0001
0010
0100
0010
,
0001
1000
0010
0001
0010
0100
1000
0001
1000
0100
0010
0001
0010
0100
1000
0001
,
0010
0000
1000
0100
1000
0100
1000
0000
0100
0000
0001
0010
0001
0010
0001
0010
,
0100
1000
0100
0010
0001
0010
0100
0010
0001
0010
0100
1000
0100
0010
0001
0010
,
1001
0000
0000
0000
1100
0000
0000
0000
1010
0000
0000
0000
1001
0000
1000
0010
,
0101
0000
0000
0000
1001
0000
0000
0000
0011
0000
0000
0000
0101
0000
0001
1000
,
0110
0000
0000
0000
1100
0000
0000
0000
0101
0000
0000
0000
1100
0000
0001
0100
,
1010
0000
0000
0000
0110
0000
0000
0000
0011
0000
0000
0000
1010
0000
0100
0001
,
1010
0000
0000
0000
1001
0000
0000
0000
1001
0000
0000
0000
1001
0000
0010
0100
,
1001
1001
1001
1001
,
0011
0100
1000
0100
0010
0001
0110
1000
0100
0010
0001
0010
1100
0010
0001
0010
,
1100
0001
1000
0001
1000
0001
1000
0001
1000
0001
1000
0001
1000
0001
1000
0001
,
0210
0000
0010
0000
0001
1000
0001
0000
1000
0000
1000
0000
0001
1000
0010
0000
,
0001
0000
0001
0000
1000
0001
1000
0000
0010
0000
0010
0000
0001
1000
0001
0000
,
1320
0000
1000
0000
0001
0100
1000
0000
0100
0000
0100
0000
0001
1000
0100
0000
,
1032
0000
1000
0000
1000
0100
1000
0000
0123
0000
1000
0000
1000
0001
0100
0000
,
2130
0000
0100
0000
0001
0010
0100
0000
0001
0000
0001
0000
0010
0100
0010
0000
,
0010
0000
0010
0000
0001
0100
0001
0000
0100
0000
0100
0000
0001
0010
0100
0000
,
3012
0000
1000
0100
1000
0100
0010
0100
1000
0100
0010
0100
0010
0100
1000
0000
,
2013
0100
0010
0001
0010
0001
0010
0100
0010
0100
0010
0100
0010
0100
0010
0100
,
3011
0000
0101
0001
1001
0001
0101
0000
,
1010
0000
1010
1000
1100
1000
1001
0000
,
0011
0000
1100
0100
0110
0100
0101
0000
,
1001
0000
0110
0010
1010
0010
0011
0010
,
0110
0000
0110
0000
0110
0000
0110
1000
,
0101
0101
0101
0101
,
0101
1000
0100
1000
0100
1000
0100
0010
0100
0010
0100
0010
0100
0001
0100
0001
,
0010
0001
0010
0001
0010
0001
0010
0100
0001
0010
0100
1000
0100
0010
0001
0010
,
1100
0000
0010
0000
0010
1000
0010
0000
0100
0000
0100
0000
0100
0001
1000
0000
,
0011
0000
1000
0000
1000
0001
0100
0000
0010
0000
0010
0000
0001
1000
0001
0000
,
0110
0000
0001
0000
0001
0010
0100
0000
0010
0000
0010
0000
1000
0010
1000
0000
,
0101
0000
1000
0000
1000
0001
0010
0000
0101
0000
0010
0000
1000
0010
0001
0000
,
1100
0000
0010
0000
1000
0001
0100
0000
1000
0000
1000
0000
1000
0100
0010
0000
,
1001
0000
0010
0000
1000
0010
0100
0000
0001
0000
0001
0000
0010
1000
0001
0000
,
0011
1000
0001
1000
0001
1000
0001
1000
0001
1000
0001
1000
0001
1000
0001
1000
,
0110
0001
0010
0100
1000
0100
0010
0001
1100
0010
0100
1000
0011
1000
0100
0010
,
0101
0000
1000
0000
0010
0001
0010
0000
1000
0000
1000
0000
0001
0100
0010
0000
,
1100
0000
0001
0000
1000
0100
0010
0000
1000
0000
1000
0000
0001
1000
0010
0000
,
0101
0000
1000
0000
0100
0010
0100
0000
0010
0000
0010
0000
1000
0001
0010
0000
,
1100
0000
0001
0000
0010
0100
0001
0000
0110
0000
1000
0100
1000
0100
1000
0100
,
1001
0000
0010
0000
1000
0100
1000
0000
0001
0000
0001
0000
0010
1000
0100
0000
,
0011
0000
0100
0000
1000
0001
0010
0000
0100
0000
0100
0000
0001
1000
0010
0000
,
1001
0010
0100
1000
0100
0010
0001
0010
0100
1000
0100
0010
0001
0010
0100
0010
,
0001
0100
0001
0100
0001
0000
0001
1000
0001
1000
0001
1000
0100
0010
0100
0010
,
2200
0000
0000
0000
,
0000
0000
0000
0000
,
0000
0000
0000
3300
0000
0000
0000
0000
,
0000
0000
0000
0000
,
0000
0000
0000
0000
0000
0020
0000
0000
,
0000
0000
0000
0000
,
0000
0000
0000
0030
0000
0000
0100
0000
0010
0000
0001
0000
0000
0000
0010
0000
,
0200
0000
0000
0000
,
0000
0000
0000
0000
0300
0002
0000
0003
,
0010
0000
0000
0100
0020
0000
0000
0000
,
0000
0000
0030
1000
0100
0010
0100
0020
,
0000
0000
0000
0000
,
0000
0000
0000
0030
0000
0002
0000
0003
,
0002
0000
0000
0003
0000
0000
0000
0000
0000
0000
0000
0000
0000
0000
0000
0000
0001
0000
0020
0000
0000
0000
0000
0000
0000
0000
0000
0000
0000
0000
0000
0000
0000
0000
0000
0000
0000
0000
0000
0000
0000
0000
0000
0000
0000
0000
0000
0000
,
0000
0000
0000
0000
0000
0000
0030
0000
0000
0100
0000
0000
1000
0000
0000
0001
0010
0100
1000
0100
0010
0001
0010
0100
,
1000
0100
0010
0001
0010
0100
1000
0100
0010
0001
0010
0100
1000
0100
0010
0001
0010
0100
1000
0100
0010
0001
0010
0100
,
1000
0100
0010
0001
0010
0100
1000
0100
0010
0001
0010
0100
1000
0100
0010
0002
0000
0000
0000
0000
0000
0000
0000
0000
,
0023
0030
0000
0100
0020
0000
0000
0000
,
0000
0000
0030
0010
0001
0010
0100
2000
,
0000
0000
0000
0000
,
0000
0000
0000
3000
0000
1001
0100
1000
,
0200
0000
1300
0100
0010
0200
0000
0300
,
0010
0000
0100
0000
1000
0000
0100
0000
0010
0000
0100
0001
0200
0000
0000
0000
,
0000
0000
0000
0000
0310
0000
0000
0100
0000
0000
0020
0000
0000
0000
0000
0000
,
1030
0000
0010
0000
0000
0100
0000
0000
1000
0000
0100
0000
0010
0000
0200
0000
,
0000
0000
0000
0000
1300
0100
0010
0100
,
0001
0000
0000
0010
0000
0000
0100
0000
0000
0000
0010
0100
2000
0000
0000
0000
,
0000
0000
0000
0000
0000
0000
0000
0000
0000
0000
0000
0000
3000
0000
0000
0000
0001
0000
0010
0000
0100
0000
1000
0000
0000
0000
0000
0000
0000
0000
0001
0000
0000
0000
0000
0000
0000
0000
0000
0001
0000
0000
0000
0000
0000
0000
0000
0000
,
0010
0000
0100
0000
0000
0100
0000
0000
1000
0000
0002
0000
0000
0000
0000
0000
,
0003
0001
0010
0100
0010
0100
0001
0000
,
0200
0000
0000
0000
0000
0000
0000
0000
0000
0000
0000
0000
0000
0000
0000
0300
0000
0000
1000
0000
0000
0200
0300
0000
,
1000
0000
0000
0020
0030
0000
1000
0000
0000
0002
0003
0000
0010
0000
0000
0100
0000
0000
1000
0000
0000
0100
0000
0000
,
0010
0000
0100
0010
0002
0000
0000
0000
0000
0000
0000
0000
1003
0000
0100
0000
,
0010
0200
0000
0000
0300
0001
0010
0000
,
0100
0000
0000
0000
0000
0000
0100
0000
0000
0010
0000
0100
0000
0000
0000
1000
0000
0000
0100
0000
0000
0010
0000
0000
,
0002
0000
0000
0000
0003
0001
0010
0000
,
0100
0000
2000
0000
3020
0000
1030
0100
,
0010
0000
0001
0000
0100
0000
1000
0000
0100
0000
0020
0000
0000
0030
0010
0100
,
1000
0100
0002
0000
0000
0000
0003
0000
0010
0000
0002
0000
0000
0000
0000
0000
,
0000
0000
0000
0103
0000
0000
0010
0000
0000
0100
0000
0000
0010
0000
0000
0200
0000
0000
0300
0000
0000
0010
1000
0010
,
1000
0100
0010
0002
0000
0000
0000
0000
0000
0000
0000
0000
0003
0000
0000
1000
0000
0000
0010
0000
0000
1000
0000
0000
,
1000
0100
0010
1000
0100
0010
0002
0000
,
0000
0000
0003
1000
0100
0020
0000
0000
,
0030
0000
0000
0001
0100
0001
0100
0001
0100
0001
0000
0000
0000
0000
0000
0001
0010
0001
0010
0001
0010
0001
0000
0000
,
0010
0100
1000
0100
0010
0020
0000
0000
,
0030
0000
0000
0001
0010
0100
1000
0100
1000
0001
0010
0100
1000
0100
0010
0001
0010
0100
0010
0001
0010
0100
1000
0100
,
0010
0001
0010
0100
1000
0100
0010
0100
1000
0100
0010
0001
0010
0100
0010
0002
0000
0000
0000
0000
0000
0000
0000
0000
,
0003
0000
0000
0002
0000
0000
0003
0000
0000
0100
0000
0000
1000
0100
0010
0001
0000
0000
0010
0000
0000
0100
0000
0000
,
0010
2000
0000
0000
3000
0010
1000
0100
,
0100
0100
0010
0020
0030
0100
0001
0010
,
0100
0010
0001
0001
0100
1010
0000
1010
,
1010
1010
1010
1010
1010
1010
1010
1010
,
1010
1010
0001
2020
3030
1001
1001
0000
,
0000
0000
0000
0200
0000
0311
0011
0000
,
0000
0000
0000
0200
0000
1310
1010
0000
,
0000
0000
0000
0200
0000
1301
1001
0000
,
0000
0000
0202
0000
0000
0000
0000
0000
0303
0000
0001
1000
0001
1000
0001
0010
,
0100
1000
0001
1000
0001
1000
0001
1000
0001
0010
0100
1000
0100
0010
0001
1000
,
0001
1000
0001
1000
0100
0010
0002
0000
0003
0000
0001
0010
0001
0010
0001
0010
,
0001
0010
0100
1000
0100
1000
0100
1000
0100
0010
1001
0000
0000
0000
1001
0000
,
0000
0000
1001
0000
0000
0000
1001
0000
0000
0000
0001
0010
0001
0010
0100
0010
,
0100
1000
0100
0010
0100
0010
0001
0010
0100
0010
0100
1000
0100
0010
0100
0010
,
0001
0010
0100
0010
0100
1000
0100
0010
0100
1000
0110
1001
0110
1001
0110
1001
,
0110
1001
0110
1001
0110
1001
0110
1001
0110
1001
0020
0030
0020
0030
0020
0030
,
0020
0030
0020
0030
0020
0030
0020
0030
0020
0030
0001
0010
0100
1000
0001
0010
,
0100
0000
0000
1000
0000
0000
0001
0000
0000
0010
0000
0000
0100
0000
0000
1000
0000
0000
0001
0000
0000
0010
0000
0000
0100
0000
0000
1000
0000
0000
0001
0000
0010
0000
0001
0000
0010
0000
0001
0000
0010
0000
0001
0000
0010
0000
0001
0000
,
0010
0000
0001
0000
0010
0000
0001
0000
0010
0000
0001
0000
0010
0000
0001
0000
0010
0000
0001
0000
0010
0000
0001
0000
0010
0000
0001
0000
0010
0000
0001
0000
0000
0010
0000
0000
0100
0000
0000
0010
0000
0000
0001
0000
0000
0010
0000
0000
,
0100
0010
0001
0010
0100
0010
0001
0010
0100
1000
0011
0000
0000
0000
0011
0000
,
0000
0000
1100
0000
0000
0000
1100
0000
0000
0000
0001
0010
0100
1000
0001
1000
,
0100
0000
0000
0010
0000
0000
0001
0000
0000
1000
0000
0000
0100
0000
0000
0010
0000
0000
0100
0000
0000
1000
0000
0000
0001
0000
0000
0010
0000
0000
0001
0000
0010
0000
0001
0000
0010
0000
0001
0000
0010
0000
0100
0000
1000
0000
0100
0000
,
1000
0000
0100
0000
1000
0000
0100
0000
0010
0000
0100
0000
0010
0000
0100
0000
0010
0000
0100
0000
0001
0000
0100
0000
0001
0000
0100
0000
0001
0000
0100
0000
0000
1000
0000
0000
0100
0000
0000
1000
0000
0000
0100
0000
0000
0000
0000
0000
,
0010
0100
0010
0100
0010
0100
0010
0100
0010
0100
1001
0000
0000
0000
1001
0000
,
0000
0000
1001
0000
0000
0000
1001
0000
0000
0000
0002
0003
0020
0030
0200
0300
,
2000
0000
0000
3000
0200
0300
0020
0030
0002
0003
0020
0030
0020
0030
0200
0300
,
2000
0000
3000
0000
2000
3000
0020
0030
2000
3000
1000
0100
0010
0001
1000
0100
,
0010
0001
1000
0100
0010
0001
1000
0100
0010
0001
0020
0000
0230
0000
0320
0000
,
0230
0000
0302
0000
0023
0000
0230
0000
2300
0000
3010
0001
0100
1000
0100
0010
,
0001
0000
0000
0010
0000
0000
0100
0000
0000
1000
0000
0000
0100
0000
0000
0010
0000
0000
0100
0000
0000
1000
0000
0000
0001
0000
0010
0000
0100
0000
2000
0000
0000
3000
0000
0000
1000
0000
0000
0100
0000
0000
0010
0000
0000
0001
0000
0000
,
0010
0100
0001
0010
0001
0100
0001
0010
0001
0010
2200
0000
3300
0000
0100
0000
,
2200
0000
0000
0000
3300
0000
1100
0000
0000
0000
0001
1000
0001
1000
0001
1000
,
0001
1000
0001
1000
0001
1000
0110
0000
0000
0000
0002
0000
0000
0000
0000
0000
,
0203
0000
0000
0000
0000
0000
0300
0001
0010
0200
0000
0000
0300
1000
0100
0020
0000
0000
0000
0000
0000
2030
0000
0000
,
0000
0000
3100
0000
0010
0000
0002
0000
0000
0000
0000
0000
0003
0000
0010
0000
0100
0000
2000
0000
0000
0000
0000
0000
0000
0000
3100
0000
0010
0000
0002
0003
0020
0030
0200
0300
2000
3000
0200
0300
0020
0030
0200
0300
2000
3000
0200
0300
,
0020
0030
0002
0003
0020
0030
0200
0300
0020
0030
0002
0003
0020
0030
0200
0300
2000
3000
0200
0300
0020
0030
0002
0003
0020
0030
0200
0300
0020
0030
0002
0000
0000
0000
0000
0000
0000
0000
0000
0000
0000
0000
0023
0000
0000
0000
0000
0000
,
0230
0000
0000
0000
2300
0000
3200
0000
0320
0000
1030
0100
0010
0001
0010
0001
,
0010
0001
0100
0001
0100
0001
0100
0001
0100
0001
0100
0010
0100
0010
0100
0010
,
0100
0010
0100
1000
0100
1000
0100
1000
0100
1000
0100
0010
0001
0010
0100
1000
,
0100
0010
0001
0010
0100
0010
0001
0010
0100
1000
0100
0001
0100
1000
0100
0001
,
0100
1000
0010
0001
0010
1000
0010
0001
0010
1000
0020
0000
0000
0030
0020
0000
,
0032
0000
0000
0000
0000
0003
1000
0010
1000
0010
2000
0000
3200
0000
2300
0000
,
3010
0100
2000
0000
0000
0000
0000
0000
3000
0000
1000
0000
1000
0000
0100
0000
,
0100
0010
0010
0002
0000
0000
0103
0010
,
0100
0000
0000
0000
0000
0000
0000
0000
0000
0000
0000
0000
0000
0000
0000
0000
0000
0000
0000
0000
0000
0000
0000
0000
0001
0000
0000
0000
0000
0000
0000
0000
0000
0000
0000
0000
0000
0000
0000
0000
0000
0000
0000
0000
0000
0000
0000
0000
0100
0000
0000
0000
0000
0000
0000
0000
0000
0000
0000
0000
0000
0000
0000
0000
0000
0000
0000
0000
0000
0000
0000
0000
1000
0000
0000
0000
0000
0000
0000
0000
0100
0000
0000
0000
0000
0000
0000
0000
1000
0000
0000
0000
0000
0000
0000
0000
0100
0000
0000
0000
0000
0000
0000
0000
1000
0000
0000
0000
0000
0000
0000
0000
0100
0000
0000
0000
0000
0000
0000
0000
1000
0000
0000
0000
0000
0000
0000
0000
0000
0000
0000
0000
0100
0000
0000
0000
0000
0000
0000
0000
0000
0000
0000
0000
0010
0000
0000
0000
0000
0000
0000
0000
0000
0000
0000
0000
0001
0000
0000
0000
0000
0000
0010
0000
0000
0000
0000
0000
0100
0000
0000
0000
0000
0000
0000
0000
0000
0000
0000
0000
0001
0000
0000
0000
0000
0000
0000
0000
0000
0000
0000
0000
,
1000
0010
0100
0010
1000
0010
1000
0010
1000
0100
1000
0100
1000
0100
0010
0100
,
1000
0000
0000
0100
0000
0000
0010
0000
0000
0100
0000
0000
0010
0000
0000
0001
0000
0000
0020
0000
0000
0000
0000
0000
0000
0000
0000
0000
0000
0000
1030
0000
0100
0000
0010
0000
0001
0000
0010
0000
0100
0000
1000
0000
0000
0010
0000
0000
,
1000
0010
1000
0100
0010
0001
0010
0100
1000
0100
0001
0010
0100
1000
0001
1000
,
0001
0000
0000
1000
0000
0000
0100
0000
0000
1000
0000
0000
0100
0000
0000
1000
0000
0000
0100
0000
0000
1000
0000
0000
0100
0000
0000
1000
0000
0000
0001
0000
0010
0000
0001
0000
0010
0000
0001
0000
0010
0000
0001
0000
0010
0000
0001
0000
,
0010
0001
0010
0001
0010
0001
0010
0001
0010
0001
0010
0001
0010
0001
0010
0100
1000
0100
1000
0100
1000
0100
1000
0100
,
0010
0100
0010
0100
0010
0100
0010
0100
0010
1000
0010
1000
0001
1000
0001
0100
0000
0000
0010
0000
0000
0100
0000
0000
,
0010
0000
0000
0100
1000
0100
0010
0000
0000
0200
0000
0000
0000
0000
0000
0302
0000
0000
0000
0000
0000
0023
0000
0000
,
0000
0000
0000
0230
0000
0000
0000
0000
0000
0320
0000
0000
0000
0000
0000
1030
0100
1000
0100
1000
0100
1000
0100
1000
,
0100
1000
0100
1000
0100
1000
0100
1000
0100
1000
0100
1000
0100
1000
0100
0010
1000
0010
1000
0010
1000
0010
1000
0010
,
1000
0010
1000
0010
1000
0010
1000
0010
1000
0010
1000
0010
1000
0010
1000
0020
0000
0000
0000
0000
0000
0000
0000
0000
,
0230
0000
0000
0302
0000
0023
0000
0000
,
0000
0230
0000
0000
0000
1320
0000
0000
,
0000
0000
0000
0230
0000
0302
0000
0023
,
0000
0000
0000
0230
0000
0000
0000
0000
0000
2300
0000
0000
0000
0000
0010
3200
0000
0000
0000
0000
0000
0000
0000
0000
,
0000
0000
0300
0100
0100
0010
0100
0100
,
0010
0000
0000
0001
0000
0000
0100
0000
0000
0010
0000
0000
0100
0000
0000
0001
0010
0100
1000
0100
1000
0001
0010
0100
,
1000
0100
0010
0001
0010
0001
0010
0001
0010
1000
0100
0010
0001
0010
0100
1000
0100
1000
0100
1000
0100
0010
0001
0010
,
0100
0000
1000
0000
0100
0000
0010
0000
0001
0000
0010
0000
0100
0000
1000
0000
0100
0000
0020
0000
0000
0000
0000
0000
0000
0000
0030
0000
0000
0000
1000
0000
0000
0001
0000
0000
1000
0000
0000
0001
0000
0000
1000
0000
0000
0001
0000
0000
,
1000
0000
0001
0010
0100
1000
0100
0010
0001
0010
1000
0010
1000
0010
1000
0010
,
1000
0010
1000
0010
1000
0010
1000
0010
1000
0010
0100
0000
0100
0000
0100
0000
,
0100
0000
0000
0010
0000
0000
0010
0000
0000
0010
0000
0000
0001
0000
0000
0001
0010
0100
1000
0100
0010
0001
0010
0100
,
1000
0100
0010
0001
0010
0100
1000
0100
0010
0001
0010
0100
1000
0100
0010
2000
0000
0000
3200
0000
0000
0302
0000
0000
,
2003
3020
0230
0302
2003
3020
0230
2300
,
3020
0000
0000
0230
0000
0000
0320
0000
0000
0032
0000
0000
0003
0000
0000
0001
0010
0100
1000
0000
0000
0001
0010
0100
,
1000
0000
0000
0001
0010
0100
1000
0100
0010
0001
0010
0100
1000
0000
0000
0010
0000
0000
0100
0000
0000
1000
0000
0000
,
0100
0000
0000
0000
0000
0000
1000
0000
0000
0100
0000
0000
1000
0000
0000
0010
0000
0000
0100
0000
0000
0010
0000
0000
0002
0000
0003
0000
0000
0000
0001
0000
0010
0000
0100
0000
1000
0000
0001
0000
0010
0000
0100
0000
1000
0000
0001
0000
,
0010
0100
1000
0001
0010
0100
1000
0001
0010
0100
1000
0100
0010
0001
0010
0200
0000
0000
0000
0000
0000
0320
0000
0000
,
0000
0000
0000
0032
0000
0000
0000
0000
0000
0203
0000
0000
0320
0000
0000
1031
0010
0100
0010
0001
0010
0100
0010
0001
,
0010
0100
1000
0100
0010
0001
0010
0100
1000
0100
0010
0100
1000
0100
0010
0001
0010
0100
0010
0001
0010
0100
1000
0100
,
0010
0100
1000
0100
0010
0001
0010
0100
0010
0001
0010
0100
1000
0100
0010
1002
0000
0000
0000
0000
0000
0000
0000
0000
,
0000
0000
0000
0000
0000
0000
0000
0000
0000
0000
0000
0000
0000
0000
0000
0000
0000
0000
0003
0000
0002
0003
0002
0003
0002
0003
0002
0003
0002
0003
0002
0003
,
0002
0003
0002
0003
0002
0003
0002
0003
0002
0003
0002
0003
0002
0003
0002
0003
0002
0003
0002
0003
1100
0000
0000
0000
0001
0000
0000
0000
0001
0000
0100
0000
,
0010
0000
0001
0000
0001
0000
1000
0100
1000
0000
0011
0000
1000
0000
1000
0001
,
0100
0000
0010
0000
0010
0000
0001
0010
0001
0000
0110
0000
1000
0000
1000
0010
,
0100
0000
0001
0000
0001
0000
0100
0010
0100
0000
1001
0000
0100
0000
0010
1000
,
0010
0000
0101
0000
1000
0000
0010
0001
0100
0000
1010
0000
0100
0000
0001
0100
,
1000
0000
0010
0000
0010
0000
1000
0001
0010
0000
0101
0000
1000
0000
0001
0100
,
0001
0000
0010
0000
0010
0000
0001
1000
0100
0000
0011
1000
0010
1000
0010
1000
,
0010
1000
0010
1000
0010
1000
0010
1000
0010
1000
0101
0010
0100
1000
0100
0010
,
0001
0010
1100
0010
0001
0010
1100
0010
0001
0010
1100
0000
0010
0000
0001
1000
,
0001
0000
0100
0000
0100
0000
0010
0001
0010
0000
1100
0000
0010
0000
0100
1000
,
0100
0000
0001
0000
0001
0000
0010
0100
0010
0000
0101
0000
1000
0000
0001
0100
,
0010
0000
0001
0000
0001
0000
1000
0001
0010
0000
0101
0000
1000
0000
0010
0100
,
0001
0000
0110
0000
1000
0010
1000
0010
1000
0010
1001
0000
0010
0000
1000
0001
,
1000
0000
0010
0000
0010
0000
0100
1000
0100
0000
0011
0000
1000
0000
0001
0010
,
0001
0000
0010
0000
0010
0000
0100
1000
0010
0000
1001
0010
0100
1000
0100
0010
,
0001
0010
0100
1000
0100
0010
0001
0010
0100
0010
0001
0100
0001
0100
0001
0100
,
0001
0100
0001
0100
0001
0100
0001
0010
0100
1000
0110
0000
0001
0000
0001
0100
,
1000
0000
0010
0000
0010
0000
0100
0001
0100
0000
1001
0000
0100
0000
0100
0001
,
1000
0000
0100
0000
0100
0000
1000
0010
0001
0000
1010
0000
0001
0000
0100
0010
,
0100
0000
1000
0000
1000
0000
0001
0010
0001
0000
1100
0000
0010
0000
0001
1000
,
0001
0000
0110
0000
1000
0000
1000
0001
0100
0000
0011
0000
1000
0000
0001
0100
,
1000
0000
0001
0000
0001
0000
1000
0010
0100
0000
1010
0000
0100
0000
0010
0100
,
1000
0000
0010
0000
0010
0000
0001
1000
0100
0000
1010
0100
0010
0100
0010
0100
,
0010
0100
0010
0100
0010
0100
0010
0100
0010
0100
0011
1000
0100
1000
0100
1000
,
0100
1000
0101
1000
0100
1000
0101
1000
0100
1000
0101
0010
0100
1000
0001
0010
,
0100
0010
0001
1000
0001
0010
0100
1000
0100
1000
0011
1000
0100
0010
0001
1000
,
0100
0010
0100
1000
0001
1000
0100
0010
0001
0010
1100
0001
0010
0001
1000
0100
,
0001
0010
1000
0100
0001
0010
1000
0100
0001
0010
1100
0010
0001
1000
0001
0010
,
1000
0100
1001
0010
0100
0010
0100
0010
0100
0010
1001
0000
0010
0000
1000
0001
,
1000
0000
0010
0000
0010
0000
0100
1000
0100
0000
0011
0000
1000
0000
0001
0010
,
0001
0000
0010
0000
0010
0000
0100
1000
0010
0000
1001
0010
0100
1000
0100
0010
,
0001
0010
0100
1000
0100
0010
0001
0010
0100
0010
0001
1000
0001
1000
0001
1000
,
0001
1000
0001
1000
0001
1000
0001
1000
0001
1000
0110
0001
0100
1000
0001
1000
,
0100
0010
0001
1000
0001
0010
0100
1000
0001
1000
0100
0010
0001
0010
0100
0010
,
0001
0010
0001
0010
1000
0100
0010
0100
0010
0001
2010
0100
0010
0100
0010
0100
,
0010
0100
0010
0100
0010
0100
0010
0100
0010
0100
3012
0100
0010
0100
0010
0100
,
0010
0100
1000
0100
0010
0100
1000
0100
0013
1000
0101
0000
0101
0000
0000
0000
,
0100
1000
0101
0000
0101
0000
0000
0000
0001
1000
0110
0000
0110
0000
2020
0000
,
3030
0022
0033
0220
0330
0101
0101
0000
,
0001
1000
0110
0000
0110
0000
0000
0000
0100
1000
0001
0010
0100
1000
0100
0000
,
0011
0000
0100
1000
0100
0010
0002
0000
0003
0000
1100
0000
1100
0000
0000
0000
,
0010
0001
1010
0000
1010
0000
0000
0000
0001
0010
1100
0000
1100
0000
1100
0000
,
0001
0020
1030
0200
0000
1301
1001
0000
,
0010
0100
0011
0000
0011
0000
0000
0000
1000
0000
0010
0100
0010
0100
0010
0100
,
0010
0100
0010
0100
0010
0100
1001
0000
0000
0000
0000
0000
1100
0000
1100
0000
,
1100
1100
1100
0000
0000
0000
1100
1100
,
1100
1100
1100
1100
0000
0000
0000
0000
;
